<?xml version="1.0" standalone="no"?>
<!DOCTYPE svg PUBLIC "-//W3C//DTD SVG 1.1//EN" "http://www.w3.org/Graphics/SVG/1.1/DTD/svg11.dtd">
<svg xmlns="http://www.w3.org/2000/svg">
<metadata>Copyright (C) 2024 by original authors @ fontello.com</metadata>
<defs>
<font id="pg-icons-v2" horiz-adv-x="1000" >
<font-face font-family="pg-icons-v2" font-weight="400" font-stretch="normal" units-per-em="1000" ascent="850" descent="-150" />
<missing-glyph horiz-adv-x="1000" />
<glyph glyph-name="100-natural-icon" unicode="&#xe800;" d="M500 725c-207 0-375-168-375-375s168-375 375-375 375 168 375 375-168 375-375 375z m0-735c-198 0-360 162-360 360s162 360 360 360 360-162 360-360-162-360-360-360z m233 311c-80 29-158 20-201-22-31-29-40-71-27-117-11-20-17-39-21-57-4 9-8 18-12 27 15 35 10 70-14 98-28 33-90 58-180 33-3-1-5-3-6-6 0-3 1-6 3-7 25-19 36-39 48-59 11-18 22-37 42-53 15-13 42-22 66-22 11 0 21 2 29 6 8-15 14-32 18-51 0 0 0 0 0 0 0 0 0 0 0-1 0 0 0-1 1-1 0 0 0-1 0-1 0 0 1-1 1-1 0 0 1 0 1-1 1 0 2 0 2-1 0 0 0 0 0 0 1 0 1 0 2 0 0 0 0 0 0 0 0 0 0 0 0 0 0 0 0 0 0 0 0 0 0 0 0 0 0 0 0 0 1 0 0 0 0 0 0 0 1 0 2 0 2 1 0 0 0 0 1 1 0 0 1 1 1 1 0 0 0 0 0 1 0 0 1 1 1 1 0 0 0 1 0 1 0 0 0 0 0 0 4 24 9 52 24 82 15-4 29-5 41-5 70 0 99 50 121 88 18 32 30 52 52 50 4 0 7 3 8 7 1 3-1 7-5 8z m-359-151c-18 15-28 32-38 49-11 18-21 36-41 54 76 17 128-5 152-33 17-20 22-45 15-70-34 53-84 84-118 94-4 1-9-1-9-5-2-4 1-9 5-9 33-10 82-41 113-93-19-9-59-3-79 13z m291 94c-26-44-55-95-141-77 19 31 52 64 108 94 4 2 5 7 3 10-2 4-7 5-10 3-55-29-88-61-109-93-6 34 3 65 26 87 36 34 96 43 162 26-16-11-27-30-39-51z m-298 308s3 0 5 1l10 7h0v-66c0-5 3-8 7-8s8 3 8 8v76c0 5-4 9-9 9-3 0-6-1-9-4l-14-10c-3-2-5-4-5-7 0-3 3-6 7-6z m81-67c13 0 22 7 25 18 2 4 2 8 2 30s-1 25-2 29c-3 11-12 18-25 18s-23-7-26-18c-2-4-2-8-2-29s0-26 2-30c3-11 12-18 26-18z m-12 74c2 5 6 7 12 7s9-3 11-7c1-3 1-6 1-26s0-24-1-27c-2-5-6-7-11-7s-10 3-12 7c-1 3-1 6-1 27s0 23 1 26z m81-74c13 0 22 7 26 18 1 4 2 8 2 30s-1 25-2 29c-4 11-13 18-26 18s-22-7-26-18c-1-4-2-8-2-29s1-26 2-30c4-11 13-18 26-18z m-11 74c2 5 6 7 12 7s9-3 11-7c1-3 1-6 1-26s0-24-1-27c-2-5-6-7-11-7s-10 3-12 7c-1 3-1 6-1 27s0 23 1 26z m106-36c-1-3-2-5-2-13s0-11 2-14c2-6 8-10 16-10s14 4 16 10c1 3 1 5 1 14s0 10-1 13c-2 6-8 10-16 10s-14-4-16-10z m22-3s1-3 1-10 0-10-1-11c-1-2-3-4-6-4s-5 2-6 4c0 1-1 3-1 11s0 9 1 10c1 3 3 4 6 4s5-1 6-4z m-62-30c0-3 2-5 5-5 2 0 3 1 4 3l49 84s1 2 1 3c0 3-2 5-5 5-2 0-4-1-5-3l-49-84s-1-3-1-3z m3 41c8 0 14 4 16 10 1 3 1 5 1 14s0 10-1 13c-2 6-8 10-16 10s-15-4-17-10c0-3-1-5-1-13s0-11 1-14c2-6 9-10 17-10z m-6 34c1 3 3 4 6 4s5-1 5-4c0-1 1-2 1-10s0-9-1-10c0-3-2-4-5-4s-5 1-6 4c0 1-1 3-1 10s0 9 1 10z m-270-204c6 0 9 4 9 9v75c0 5-3 8-7 8s-8-3-8-8v-56h0l-33 56c-3 5-6 8-10 8-6 0-10-3-10-9v-75c0-5 3-8 8-8s7 3 7 8v56h0l34-56c3-5 6-8 10-8z m27 0c4 0 7 2 8 5l5 14h35l5-14c1-3 4-5 7-5 4 0 8 3 8 7 0 2 0 2-1 3l-26 73c-2 6-5 9-10 9s-9-3-11-9l-26-73s-1-1-1-3c0-4 4-7 8-7z m30 69h0l12-35h-25l13 35z m66-69c5 0 8 3 8 8v69s0 0 1 0h18c5 0 8 3 8 7s-3 8-8 8h-54c-5 0-8-3-8-8s3-7 8-7h18s1 0 1 0v-69c0-5 3-8 8-8z m44 84v-52c0-21 14-33 34-33s33 13 33 33v52c0 5-3 8-8 8s-7-3-7-8v-52c0-12-8-19-18-19s-18 7-18 19v52c0 5-3 8-8 8s-8-3-8-8z m91-84c5 0 8 3 8 8v29s0 0 1 0h17l17-32c1-3 4-5 8-5 4 0 7 3 7 7 0 2 0 4-1 5l-15 28c9 4 16 13 16 25 0 16-12 27-29 27h-30c-4 0-7-3-7-7v-76c0-5 4-9 8-9z m8 77s0 0 1 0h19c9 0 14-5 14-13s-5-12-14-12h-19s-1 0-1 0v25z m59-70c0-5 4-8 8-8 3 0 6 3 7 6l5 14h35l5-14c1-3 4-6 8-6 4 0 7 3 7 8 0 1 0 2 0 3l-26 73c-3 6-5 9-11 9s-8-3-10-9l-27-73s0-2 0-3z m37 62h0l13-35h-25l12 35z m101-55h-36s-1 0-1 1v69c0 5-3 8-7 8s-8-3-8-8v-76c0-5 3-8 8-8h44c5 0 8 3 8 7s-3 7-8 7z" horiz-adv-x="1000" />

<glyph glyph-name="100-pure-icon" unicode="&#xe801;" d="M500 725c-207 0-375-168-375-375s168-375 375-375 375 168 375 375-168 375-375 375z m0-735c-198 0-360 162-360 360s162 360 360 360 360-162 360-360-162-360-360-360z m0 365h0c53 0 95 43 95 96h0c0 81-87 157-90 160-3 2-7 2-10 0-4-3-91-79-91-160 0-26 10-50 28-68 18-18 42-28 68-28z m0 240c18-17 80-80 80-144 0-45-35-81-80-81h0c-21 0-42 8-57 23-15 16-23 36-23 58 0 63 62 127 80 144z m0-206h0c4 0 8 4 8 8s-4 7-8 7c-25 0-46 21-46 47 0 4-3 7-7 7h0c-4 0-8-3-8-7 0-34 28-62 61-62z m-132-109s3 0 4 1l10 7h0v-66c0-5 3-8 8-8s7 3 7 8v76c0 5-3 9-8 9-4 0-6-2-9-4l-15-10c-2-2-4-4-4-7 0-3 3-6 6-6z m106-49c1 4 2 8 2 29s-1 26-2 30c-4 11-12 18-26 18s-22-7-25-18c-2-4-3-8-3-30s1-25 3-29c3-11 12-18 25-18s22 7 26 18z m-37 3c-1 3-1 6-1 26s0 24 1 27c2 5 6 7 11 7s10-3 12-7c0-3 1-6 1-27s0-23-1-26c-2-5-6-7-12-7s-9 3-11 7z m107-3c1 4 1 8 1 29s0 26-1 30c-4 11-13 18-26 18s-22-7-26-18c-1-4-2-8-2-30s1-25 2-29c4-11 13-18 26-18s22 7 26 18z m-37 3c-1 3-2 6-2 26s0 24 2 27c1 5 5 7 11 7s10-3 11-7c1-3 1-6 1-27s0-23-1-26c-1-5-6-7-11-7s-9 3-11 7z m105 17c-1-3-1-5-1-13s0-10 1-13c2-7 8-11 16-11s15 4 17 11c0 3 1 5 1 13s0 10-1 13c-2 7-9 11-17 11s-14-4-16-11z m22-3s1-3 1-10 0-10-1-11c-1-2-3-4-6-4s-5 2-5 4c0 1-1 3-1 11s0 9 1 10c0 2 2 4 5 4s5-2 6-4z m-3 55c0 3-2 5-5 5-2 0-3-1-5-3l-48-84s-1-2-1-3c0-3 2-5 5-5 2 0 3 1 4 3l49 84s1 2 1 3z m-56 4c-8 0-14-4-16-10-1-3-1-5-1-14s0-10 1-13c2-6 8-10 16-10s14 4 16 10c1 3 2 5 2 13s0 11-2 14c-2 6-8 10-16 10z m6-34c-1-3-3-4-6-4s-5 1-5 4c0 1-1 2-1 10s0 9 1 10c0 3 3 4 5 4s5-1 6-4c0-1 1-3 1-10s0-9-1-10z m-191-93h-28c-4 0-7-2-7-7v-76c0-5 3-8 8-8s7 3 7 8v26s0 1 1 1h19c18 0 30 11 30 28s-12 28-30 28z m-1-42h-18s-1 0-1 1v27s0 1 1 1h18c9 0 15-6 15-14s-6-15-15-15z m101 43c-5 0-8-3-8-8v-51c0-13-7-20-18-20s-17 7-17 20v51c0 5-4 8-8 8s-8-3-8-8v-51c0-22 14-34 33-34s34 13 34 34v51c0 5-3 8-8 8z m90-28c0 17-13 27-30 27h-29c-5 0-7-2-7-7v-76c0-5 3-8 8-8s8 3 8 8v28s0 1 0 1h18l16-32c2-4 5-5 8-5 5 0 8 3 8 7 0 2 0 4-2 5l-15 28c10 4 17 13 17 25z m-30-13h-20s0 0 0 1v24s0 1 0 1h20c8 0 14-5 14-13s-6-13-14-13z m59 26h36c5 0 8 3 8 7s-3 7-8 7h-45c-5 0-7-2-7-7v-76c0-4 2-7 7-7h45c5 0 8 3 8 7s-3 7-8 7h-36s-1 0-1 1v23s0 0 1 0h29c5 0 8 3 8 7s-3 8-8 8h-29s-1 0-1 0v22s0 1 1 1z" horiz-adv-x="1000" />

<glyph glyph-name="gmp-certified-icon" unicode="&#xe802;" d="M500 725c-207 0-375-168-375-375s168-375 375-375 375 168 375 375-168 375-375 375z m0-735c-198 0-360 162-360 360s162 360 360 360 360-162 360-360-162-360-360-360z m93 296l-93-113-46 40c-4 2-8 2-11-1-2-4-2-8 1-11l52-44s3-2 5-2c0 0 0 0 1 0 2 0 3 2 5 3l98 118c3 4 3 8 0 11-4 2-8 2-11-1z m-1-65c-4-1-7-5-5-9 3-10 5-18 5-27 0-51-42-92-92-92s-92 41-92 92 42 91 92 91c14 0 23-1 34-6 4-2 8 0 10 3 1 4 0 9-4 10-13 6-24 8-40 8-58 0-106-48-106-106s48-107 106-107 107 48 107 107c0 10-2 20-5 31-2 4-6 7-10 5z m-177 264c16 0 28 8 33 23 1 5 2 13 2 20v3c0 4-2 6-6 6h-21c-4 0-7-3-7-7s3-6 7-6h11s1 0 1-1c0-4 0-8-2-12-3-7-9-11-17-11-9 0-15 4-17 12-1 3-2 8-2 21s1 16 2 20c2 8 8 12 17 12 7 0 12-2 16-8 2-3 4-4 7-4 4 0 7 3 7 7 0 2 0 3-1 5-5 8-15 14-29 14-16 0-28-7-32-21-2-7-3-13-3-25s1-19 3-25c4-15 16-22 32-22z m55 1c4 0 7 3 7 8v50h1l17-38c2-5 5-7 8-7s7 2 9 7l17 38h1v-50c0-5 3-8 7-8s7 3 7 8v75c0 6-3 10-9 10-4 0-6-3-9-9l-22-50h0l-23 50c-2 6-4 9-9 9-5 0-9-4-9-10v-75c0-5 3-8 8-8z m98 0c5 0 8 4 8 9v25s0 1 1 1h19c17 0 30 12 30 29s-13 28-30 28h-28c-5 0-8-3-8-7v-76c0-5 4-9 8-9z m8 77s0 1 1 1h18c9 0 15-6 15-14s-6-15-15-15h-18s-1 0-1 1v27z m-326-123c7 0 11-3 15-9 2-3 4-4 7-4 4 0 7 3 7 7 0 2-1 4-1 5-5 9-15 15-28 15-16 0-27-8-32-22-2-7-2-12-2-25s1-19 2-25c5-14 16-22 32-22 13 0 23 5 28 15 0 1 1 3 1 4 0 4-4 7-7 7-3 0-5-1-7-4-4-5-8-8-15-8-9 0-14 4-16 12-1 4-2 8-2 21s1 17 2 21c2 7 7 12 16 12z m57-2h36c5 0 8 3 8 7s-3 8-8 8h-45c-5 0-8-3-8-8v-76c0-4 3-7 8-7h45c5 0 8 3 8 7s-3 7-8 7h-36s-1 0-1 1v23s0 0 1 0h29c5 0 8 3 8 8s-3 7-8 7h-29s-1 0-1 0v23s0 0 1 0z m106-72c1-3 4-5 7-5 5 0 8 3 8 7 0 2 0 4-1 5l-15 28c9 4 16 13 16 25 0 16-13 27-29 27h-30c-4 0-7-3-7-7v-76c0-5 3-9 8-9s8 4 8 9v28s0 1 1 1h17l17-33z m-35 47v25s0 0 1 0h20c8 0 14-5 14-13s-6-12-14-12h-20s-1 0-1 0z m91-52c4 0 8 3 8 8v69s0 0 1 0h17c5 0 8 3 8 7s-3 8-8 8h-53c-5 0-8-3-8-8s3-7 8-7h18s0 0 0 0v-69c0-5 4-8 8-8z m52 92c-4 0-8-3-8-8v-76c0-5 4-9 8-9s8 4 8 9v76c0 5-3 8-8 8z m32-92c5 0 8 3 8 8v30s0 1 1 1h29c5 0 8 3 8 7s-3 7-8 7h-29s-1 0-1 1v23s0 1 1 1h36c5 0 8 3 8 7s-3 7-8 7h-45c-5 0-8-3-8-7v-76c0-5 4-9 8-9z m72 92c-5 0-8-3-8-8v-76c0-5 3-9 8-9s8 4 8 9v76c0 5-3 8-8 8z m41-15h36c5 0 8 3 8 7s-3 8-8 8h-46c-4 0-7-3-7-8v-76c0-4 3-7 7-7h46c5 0 8 3 8 7s-3 7-8 7h-36s-1 0-1 1v23s0 0 1 0h29c5 0 8 3 8 8s-3 7-8 7h-29s-1 0-1 0v23s0 0 1 0z m119-6c-5 14-16 21-35 21h-22c-5 0-7-3-7-8v-77c0-4 2-7 7-7h22c19 0 30 7 35 21 2 6 3 12 3 25s-1 19-3 24z m-15-44c-3-9-10-12-20-12h-12s-1 0-1 1v61s0 1 1 1h12c10 0 17-4 20-12 1-4 2-9 2-19s-1-16-2-20z" horiz-adv-x="1000" />

<glyph glyph-name="gmp-icon" unicode="&#xe803;" d="M581 595c-5 0-14 0-23 1-13 3-21 8-26 15-5 7-6 17-4 27 4 22 23 31 45 27 9-2 15-5 18-7l-6-12c-3 2-7 4-15 6-12 3-24-2-27-17-3-14 5-24 17-26 3-1 6-1 8-1l2 15-10 2 3 11 25-5-8-35z m79-2c-10-20-29-27-47-18-18 10-22 29-13 46 10 19 28 27 46 17 19-9 22-28 14-45z m-45 21c-6-12-5-23 5-28 9-4 19 2 25 14 5 11 5 23-4 28-10 4-20-2-26-14z m103-73c-15-16-34-17-49-4-15 14-14 33 0 48 14 15 34 17 49 4 15-14 13-34 1-48z m-37 33c-9-10-11-21-3-28 8-7 19-4 28 6 9 9 12 21 4 28-8 7-20 4-28-6z m74-27c4-4 8-10 13-17 7-11 9-19 9-27-1-9-6-17-16-24-11-7-21-8-29-5-9 3-18 11-25 22-4 7-7 12-9 15l57 37z m-39-43s2-4 3-5c7-12 19-15 33-6 12 7 13 18 6 30-1 2-3 4-4 5l-38-24z m64-140c9 1 18 3 28 4h0c-9 1-19 3-27 5l-28 5-1 12 25 10c8 3 17 7 26 10h0c-9-1-20-2-28-2l-26-3-2 15 69 4 2-21-22-9c-7-4-16-6-23-9h0c7-1 17-2 25-4l23-4 3-20-68-12-2 15 26 5z m-10-45l-17 7 2 16 65-31-3-20-72-11 3 17 18 3 3 19z m8-19l15 2c5 0 10 1 14 1h0c-4 2-9 4-12 5l-14 7-3-15z m-34-25l63-27-7-16-29-3c-8-1-17-1-26-1h0c9-3 18-6 27-10l18-8-5-13-63 27 6 15 30 3c9 1 19 1 27 1h0c-8 3-17 7-27 12l-20 8 6 13z m17-114l-31 24c-9 8-17 8-21 1-5-6-4-13 6-21l31-24-10-12-30 24c-17 13-18 28-7 42 11 13 24 15 41 2l30-24-9-12z m-43-49l-33-27-8 10 21 17-10 12-20-15-8 10 20 15-18 22 12 9 43-53z m-83 3l-4 18 14 7 14-70-18-10-51 51 15 8 13-14 17 10z m-10-19l10-11c3-2 6-7 9-10h0c-1 5-2 10-3 14l-3 15-14-7z m-87 0c3 2 9 5 17 7 23 6 38-5 43-24 6-22-7-39-27-44-8-2-14-2-17-2v13c3-1 8-1 13 1 12 3 19 12 16 27-4 14-14 20-27 16-5-1-9-3-12-5l-6 11z m-19-55l18 1v-13s-52-1-52-1v12s18 1 18 1l-1 56h15s2-55 2-55z m-69-9l7 38c3 12-1 19-9 20-8 2-13-3-15-15l-8-38-15 3 8 38c4 20 16 28 34 25 17-4 25-15 21-37l-8-37-15 3z m-65 17c-5 1-11 4-19 7-9 4-15 9-18 14-2 5-2 10 0 16 4 8 12 11 18 10h0c-3 4-4 9-3 16 2 8 4 17 4 20l14-7c0-2-1-7-2-16-2-9 0-12 5-15l4-2 12 25 13-7-28-61z m-1 33l-5 3c-7 3-13 1-16-4-2-6 0-11 7-13 3-2 5-3 6-3l8 17z m-73 7l39 56 13-8-39-57-13 9z m30 61l-48-48-13 13 8 28c2 7 5 16 8 24h0c-6-7-12-14-19-21l-14-14-10 10 48 49 12-12-9-29c-2-8-5-17-9-25h0c7 6 13 13 21 21l15 15 10-10z m-77 96c4-3 10-10 15-18 6-11 8-20 6-29-2-8-8-16-17-21-19-11-39-3-50 16-5 8-7 15-7 18l12 3c0-4 2-8 6-15 6-11 18-15 31-8 12 7 15 19 8 30-2 3-3 6-5 6l-12-8 5-9-10-6-13 22 31 18z m-79 37c-2 5-3 11-4 20-1 10-1 17 2 22 3 5 8 8 15 10 7 0 12 0 17-5 5-4 9-12 10-21 0-2 1-4 0-5l25 3 2-15-67-9z m29 20s0 2 0 5c-1 8-6 12-13 11-6-1-10-6-8-13 0-3 0-5 1-6l20 3z m-36 50c0 5 0 13 0 21 1 10 4 17 8 22 4 4 9 6 15 5 9-1 14-8 15-14h0c3 5 7 7 14 8 8 1 17 3 20 4l-2-16c-2-1-8-2-16-3-9-2-12-4-12-11v-4s26-3 26-3l-1-15-68 6z m31 13v7c1 7-2 12-8 13-6 0-10-3-11-11 0-3 0-5 0-7l19-1z m30 59l15-10-5-15-59 41 7 19 72-1-6-16h-18s-6-18-6-18z m-5 20h-15c-4 0-10 1-14 1h0c4-2 8-5 12-7l12-9 5 15z m61 60c0-2-2-9-6-16-13-21-31-23-48-13-20 12-23 33-12 51 4 7 9 11 11 13l9-10c-3-2-6-5-9-10-6-10-5-22 8-30 12-7 24-5 31 7 2 4 4 9 5 13l11-5z m-23 53l-13-13-10 9 37 38 9-9-12-13 40-39-11-11-40 38z m40 53l41-54-12-9-42 54 13 9z m93-23c-2-2-7-7-14-10-21-12-39-4-48 13-11 21-2 40 16 50 7 4 14 5 16 5l3-13c-3 0-8-1-13-3-10-6-15-17-8-31 6-12 17-16 30-9 4 2 8 5 10 8l8-10z m39 40l-24-7 4-16 27 8 3-13-42-11-18 66 41 11 3-12-26-7 4-14 24 7 3-12z m34 14c0 7 5 13 12 13 8 0 14-5 14-12 0-8-5-14-13-14-7 0-13 5-13 13z m22-667c-207 0-375 168-375 375s168 375 375 375 375-168 375-375-168-375-375-375z m0 735c-198 0-360-162-360-360s162-360 360-360 360 162 360 360-162 360-360 360z m0-708c-192 0-348 156-348 348s156 348 348 348 348-156 348-348-156-348-348-348z m0 691c-189 0-342-154-342-343s153-342 342-342 343 153 343 342-154 343-343 343z m0-130c-82 0-154-47-190-115h18c34 60 98 100 172 100s138-40 172-100h18c-36 68-107 115-190 115z m0-426c83 0 156 48 191 118h-18c-33-62-98-103-173-103s-140 42-173 103h-18c35-70 108-118 191-118z m203 118c-36-76-113-129-203-129s-167 53-203 129h-7c37-80 117-135 210-135s174 55 210 135h-6z m-405 192c36 75 113 127 202 127s166-52 202-127h7c-37 79-117 133-209 133s-172-54-209-133h7z m110-169c-10-3-32-8-53-8-28 0-49 7-64 21-14 14-22 34-22 57 0 53 39 83 91 83 20 0 36-4 43-8l-7-28c-9 4-19 6-37 6-29 0-52-16-52-51s21-52 50-52c8 0 14 1 17 2v34h-24v28h58v-84z m150 54c0 19-1 42-1 65h0c-5-20-12-43-18-62l-19-61h-28l-17 61c-5 18-11 41-15 62h0c-1-22-2-46-2-66l-3-60h-33l10 158h47l16-53c5-18 10-38 13-56h1c4 18 9 39 15 56l16 53h48l8-158h-35l-2 60z m53 95c11 2 27 3 49 3s38-4 48-12c10-8 17-21 17-37s-5-28-15-37c-12-11-30-17-51-17-4 0-9 0-12 1v-57h-35v156z m36-72c3-1 6-1 12-1 19 0 31 10 31 26 0 14-10 23-29 23-7 0-12 0-14-1v-47z m-68 114l7-11 4 12 13 3-10 9 1 13-11-7-13 5 4-13-9-11h13z m-67 13l-2 13 9 10-13 2-6 12-6-12-13-2 9-10-2-13 12 6 12-6z m-77-13l-9 11 4 13-13-5-11 7 1-13-11-9 13-3 5-12 7 11h13z m-14-238l-7 12-4-13-13-3 10-9-1-13 12 8 12-5-4 12 9 11h-13z m67-13l2-13-9-10 13-2 6-12 6 12 13 2-9 10 2 13-12-6-12 6z m77 13l9-11-4-12 13 5 11-8-1 13 11 9-13 3-5 13-7-12h-13z" horiz-adv-x="1000" />

<glyph glyph-name="lab-test-icon" unicode="&#xe804;" d="M500 725c-207 0-375-168-375-375s168-375 375-375 375 168 375 375-168 375-375 375z m0-735c-198 0-360 162-360 360s162 360 360 360 360-162 360-360-162-360-360-360z m46 240v78h2c4 0 7 4 7 8s-3 7-7 7h-95c-5 0-8-3-8-7s3-8 8-8h2v-78l-67-124c-6-11-7-21-2-30 5-8 16-13 29-13h171c13 0 24 5 29 13 5 9 4 19-2 30l-67 124z m55-146c-2-4-8-6-15-6h-172c-7 0-13 2-15 6-2 4-1 9 2 14l67 127s0 0 0 0c0 0 0 0 1 1 0 1 0 1 0 2 0 0 0 0 0 0v80h61v-80s0 0 0 0c0-1 0-1 0-2 0 0 0-1 0-1 0 0 0 0 0 0l68-127c4-5 4-10 2-14z m-69 86l-37-51-28 23c-4 3-8 2-11-1-2-3-2-8 1-10l34-28s3-2 5-2c0 0 0 0 1 0 2 0 3 2 5 3l42 58c2 3 1 8-2 10-3 3-8 2-10-2z m-129 317h44c5 0 8 3 8 7s-3 7-8 7h-36s-1 0-1 1v68c0 5-3 8-7 8s-8-3-8-8v-75c0-5 3-8 8-8z m67-1c3 0 6 2 7 6l5 14h35l5-14c1-4 4-6 8-6 4 0 7 3 7 8 0 1 0 2 0 3l-27 73c-2 5-5 9-10 9s-8-4-10-9l-27-73s0-2 0-3c0-5 3-8 7-8z m29 69h0l13-35h-25l12 35z m56-68h27c19 0 31 9 31 26 0 11-6 18-13 21h0c7 4 11 10 11 19 0 15-10 25-28 25h-28c-5 0-7-3-7-8v-77c0-4 2-7 7-7z m8 76s0 1 1 1h19c7 0 12-5 12-12s-5-12-12-12h-19s-1 0-1 0v23z m0-38s0 1 1 1h19c9 0 14-5 14-13s-5-13-14-13h-19s-1 0-1 1v24z m-222-72h-53c-5 0-8-3-8-8s3-7 8-7h17s1 0 1 0v-69c0-5 4-8 8-8s8 3 8 8v69s0 0 1 0h18c5 0 8 3 8 7s-3 8-8 8z m79-85c0 5-3 7-8 7h-36s-1 0-1 1v23s0 1 1 1h29c5 0 8 3 8 7s-3 7-8 7h-29s-1 0-1 1v22s0 1 1 1h36c5 0 8 3 8 7s-3 7-8 7h-46c-4 0-7-3-7-7v-77c0-4 3-7 7-7h46c5 0 8 3 8 7z m11 59c0-15 9-24 28-27l4 0c13-2 17-6 17-13 0-8-6-13-17-13-8 0-15 3-21 7-2 1-4 2-5 2-4 0-7-4-7-8 0-2 1-5 4-6 6-4 16-9 28-9 23 0 35 12 35 28s-9 25-28 27l-4 1c-12 2-17 6-17 12 0 7 5 12 15 12 6 0 11-1 17-4 1-1 3-1 5-1 4 0 7 3 7 7 0 3-2 5-4 6-6 4-15 7-25 7-19 0-31-11-31-28z m104-67c5 0 8 4 8 9v68s0 1 1 1h18c5 0 8 3 8 7s-3 7-8 7h-54c-5 0-8-3-8-7s3-7 8-7h18s1 0 1-1v-68c0-5 3-9 8-9z m62 78h36c5 0 7 3 7 7s-2 7-7 7h-46c-4 0-7-3-7-7v-77c0-4 3-7 7-7h46c5 0 7 3 7 7s-2 7-7 7h-36s-1 0-1 1v23s0 1 1 1h29c5 0 8 3 8 7s-3 7-8 7h-29s-1 0-1 1v22s0 1 1 1z m85 15h-23c-4 0-7-3-7-8v-77c0-4 3-7 7-7h23c18 0 29 7 34 21 2 6 3 12 3 25s-1 19-3 24c-4 14-16 21-34 21z m19-65c-3-9-10-13-20-13h-12s-1 0-1 1v62s0 0 1 0h12c10 0 17-3 20-12 1-3 2-9 2-19s-1-15-2-19z" horiz-adv-x="1000" />

<glyph glyph-name="made-in-usa-dark-icon" unicode="&#xe805;" d="M500 725c-207 0-375-168-375-375s168-375 375-375 375 168 375 375-168 375-375 375m249-211l12 37 12-37h39l-32-23 13-36-32 23-31-23 12 37-32 23h39z m-16-164c0-129-104-233-233-233s-233 104-233 233 104 233 233 233 233-104 233-233m-99 272l12 37 12-37h39l-32-23 13-37-32 23-31-23 12 37-32 23h39z m-148 47l12 37 12-37h39l-31-23 12-36-31 22-32-22 12 36-31 23h39z m-154-47l12 37 12-37h39l-32-23 12-37-31 23-31-23 12 37-31 23h39z m-109-108l12 37 13-37h38l-31-23 12-37-31 23-31-23 12 37-32 23h39z m-74-158h39l12 37 12-37h38l-31-23 12-37-31 23-31-23 12 37-31 23z m121-218l-31 23-31-23 12 37-31 23h39l11 36 12-36h39l-31-23 12-37z m112-108l-31 23-31-23 12 37-32 23h39l12 37 12-37h39l-32-23 12-37z m148-36l-32 23-31-23 12 37-31 23h38l12 37 12-37h39l-31-23 12-37z m151 43l-32 23-31-23 12 37-31 23h39l12 36 12-36h38l-31-23 12-37z m111 112l-31 23-32-23 12 37-31 23h39l12 36 12-36h39l-32-23 13-37z m8 177l-31-23 12 37-31 23h39l12 37 12-37h39l-32-23 13-37-32 23z m-481 114c1 7 1 12 1 17h0c1-4 3-9 5-14l13-39h10l13 41c2 5 3 9 4 12h0c0-4 0-9 2-16l5-37h9l-10 65h-11l-14-41c-1-5-2-8-3-13h0c-1 4-2 8-4 13l-14 41h-10l-10-65h9l5 36z m91 29l-23-65h9l5 15h28l5-15h10l-24 65h-10z m-7-43l9 23c1 3 2 6 3 10h0c0-4 1-6 3-10l8-23h-23z m102 11c0 23-12 32-33 32-7 0-14 0-19 0v-64c5 0 10 0 16 0 21 0 36 11 36 33m-43 23c2 0 6 0 9 0 17 0 25-8 25-25 0-18-11-26-26-26-2 0-6 0-9 1v50z m199-31l-24 38h-12v-65h9v21c0 11 0 26-1 33 2-4 5-9 7-13l25-40h12v65h-9v-19c0-10 0-26 1-34-3 4-5 9-8 14m-272-138c0-19-5-26-22-26s-22 9-22 24v94h-41v-96c0-31 12-57 61-57 40 0 65 19 65 62v91h-41v-93z m102 51c0 5 5 10 16 10 9 0 18-2 27-4l2 36c-9 1-20 2-28 2-39 0-62-19-62-49 0-51 56-38 56-60 0-7-7-11-17-11-11 0-23 2-32 5l-2-38c10-2 21-3 31-3 40 0 64 23 64 53 0 47-56 39-56 58m108 42l-49-150h41l7 25h46l8-25h45l-51 150h-47z m9-93l5 17c3 9 6 19 8 28h0c2-9 4-18 7-26l6-19h-26z" horiz-adv-x="1000" />

<glyph glyph-name="made-in-usa-icon" unicode="&#xe806;" d="M500 725c-207 0-375-168-375-375s168-375 375-375 375 168 375 375-168 375-375 375z m0-735c-198 0-360 162-360 360s162 360 360 360 360-162 360-360-162-360-360-360z m-218 396c-1-3 0-6 3-8 3-2 6-2 9 0l38 28 38-28s3-1 5-1 3 0 5 1c2 2 3 5 3 8l-15 45 38 28c3 2 4 6 3 9-1 2-4 5-7 5h-47l-15 45c0 2-3 5-7 5s-6-3-7-5l-14-45h-47c-4 0-7-3-7-5-1-3 0-7 2-9l39-28-15-45z m4 72h30c3 0 6 2 7 5l9 27 9-27c1-3 4-5 7-5h30l-24-18c-2-2-4-5-3-8l9-28-23 17c-3 2-7 2-9 0l-24-17 9 28c1 3 0 6-3 8l-23 18z m179-27l-15-45c0-3 0-6 3-8 2-1 3-1 5-1s3 0 5 1l38 28 38-28c3-2 6-2 9 0 2 2 4 5 3 8l-15 45 39 28c2 2 3 6 3 9-1 2-4 5-8 5h-47l-14 45c-1 2-4 5-7 5s-7-3-7-5l-15-45h-47c-3 0-6-3-7-5-1-3 0-7 3-9l38-28z m19 27c3 0 6 2 7 5l9 27 9-27c1-3 4-5 7-5h30l-24-18c-2-2-4-5-3-8l9-28-23 17s-3 2-5 2-3-1-5-2l-23-17 9 28c1 3 0 6-3 8l-24 18h30z m253 15h-47l-15 45c0 2-3 5-7 5s-6-3-7-5l-14-45h-47c-4 0-7-3-7-5-1-3 0-7 2-9l39-28-15-45c-1-3 0-6 3-8 3-2 6-2 9 0l38 28 39-28s2-1 4-1 3 0 5 1c2 2 3 5 3 8l-15 45 38 28c3 2 4 6 3 9-1 2-3 5-7 5z m-47-33c-2-2-4-5-3-8l9-28-23 17c-3 2-7 2-9 0l-24-17 9 28c1 3 0 6-3 8l-23 18h29c3 0 6 2 7 5l9 27 10-27c0-3 3-5 7-5h29l-24-18z m-345-133c-5 0-7-3-10-9l-22-50h0l-23 50c-2 6-4 9-9 9-5 0-8-4-8-10v-75c0-5 2-8 7-8s7 3 7 8v50h1l17-38c2-5 5-7 8-7s7 2 9 7l17 38h1v-50c0-5 3-8 7-8s7 3 7 8v75c0 6-3 10-9 10z m79-87c1-4 4-6 7-6 4 0 8 3 8 8 0 1 0 2-1 3l-26 73c-2 5-5 9-10 9s-9-4-11-9l-26-73s-1-2-1-3c0-5 4-8 8-8 3 0 6 2 7 6l5 14h35l5-14z m-35 28l13 35h0l12-35h-25z m90 58h-22c-5 0-7-3-7-7v-77c0-4 2-7 7-7h22c19 0 30 6 35 20 1 6 2 12 2 25s-1 19-2 25c-5 14-16 20-35 20z m19-65c-3-8-9-12-20-12h-12s-1 0-1 1v61s0 1 1 1h12c11 0 17-4 20-12 2-4 2-9 2-19s-1-16-2-19z m92-19c0 4-2 7-7 7h-36s-1 0-1 1v23s0 1 1 1h29c5 0 8 3 8 7s-3 7-8 7h-29s-1 0-1 1v22s0 1 1 1h36c5 0 7 3 7 7s-2 7-7 7h-46c-4 0-7-3-7-7v-77c0-4 3-7 7-7h46c5 0 7 3 7 7z m49 85c-4 0-8-4-8-9v-75c0-5 4-9 8-9s8 4 8 9v75c0 5-3 9-8 9z m85 0c-4 0-7-3-7-8v-57h0l-34 57c-3 5-5 8-10 8-5 0-9-4-9-10v-75c0-5 3-8 7-8s7 3 7 8v57h1l33-57c3-5 6-8 11-8 5 0 8 4 8 10v75c0 5-3 8-7 8z m-274-126c-4 0-7-3-7-8v-51c0-13-8-20-18-20s-18 7-18 20v51c0 5-3 8-8 8s-8-3-8-8v-51c0-22 14-34 34-34s33 13 33 34v51c0 5-3 8-8 8z m59-38l-5 0c-12 2-16 6-16 13 0 7 5 12 14 12 6 0 12-2 17-4 2-1 4-1 5-1 4 0 7 2 7 7 0 2-1 5-4 6-5 3-15 6-24 6-19 0-31-11-31-27 0-15 9-24 27-27l5 0c13-2 16-6 16-13 0-8-6-13-17-13-8 0-14 3-21 7-2 1-3 1-5 1-4 0-7-3-7-7 0-3 2-5 4-6 6-4 16-9 29-9 22 0 34 12 34 28s-9 24-27 27z m82 29c-2 6-5 9-11 9s-8-3-10-9l-27-73s0-1 0-3c0-4 4-7 7-7 4 0 7 2 8 5l5 14h35l5-14c1-3 4-5 7-5 5 0 8 3 8 7 0 2 0 2 0 3l-27 73z m-23-49l12 35h0l13-35h-25z" horiz-adv-x="1000" />

<glyph glyph-name="made-in-usa-map-dark-icon" unicode="&#xe807;" d="M358 475h0c-1-3-2-5-3-8l-7-18h18l-6 18c-1 3-2 5-2 8m505 53c5 5 9 10 12 16v5c-3 1-6 3-9 4-3 2-6 3-10 5-3 5-6 10-9 15-3 3-8 2-12 3-1-1-2-3-3-5-2 1-4 2-7 2-6-13 3-27 0-40-3-3-5-5-7-8-11-6-23-10-35-15-7-7-11-15-16-23 2-1 5-2 7-2-1-4-2-9-5-11-5-4-11-4-17-4-5 0-10-3-14-6 2-2 4-5 7-8-5-7-11-13-18-18-7-5-14-12-22-16-4 1-8 3-12 3 0 3 1 7 2 10 2 4 6 8 5 13-2 6-6 11-8 16-2 0-5 0-7 0-2-4-5-7-8-9 2 4 5 8 6 13-1 5-3 10-6 15-5 2-12 3-17 4 0 0-6-7-7-8-3-4-8-8-11-14 0-2 1-5 1-7-1-1-2-3-3-4 1-2 2-3 3-5 0-1-1-2-1-3 4-6 9-13 7-21 0-6-5-12-11-12-4 6-8 12-7 20-1 1-3 3-3 5 2 12 2 25 5 37-3-3-5-6-8-9 2 4 4 8 5 13 7 4 21 9 30 9 3 2 5 3 8 5-1 2-3 5-5 8-3-1-6-1-10-2-1 2-4 4-7 3-8-2-14-7-21-10-2 2-4 4-6 6-3 0-5 0-8 1 2 3 5 7 7 10-5-1-10-2-13-6-5-7-13-10-20-13-1 1-3 4-4 5-3-1-6-2-10-3 7 8 16 15 25 21-3 1-6 2-9 2-2 0-3 0-5-1-4 0-9 0-13 1-7 1-13 5-20 5-5 0-10 0-15 2-1 3-4 7-6 10 0-2-2-5-3-7-20-1-42 0-62 0-23 1-45 6-66 9-15 2-29 4-44 7-24 6-49 12-72 20-20 8-41 15-60 24h-3c-1-6-7-16-6-22 0 14-10 17-18 22h-2c-5-15-6-31-14-45-5-9-12-18-20-26-4-6-10-11-11-18-2-11-6-23-17-29 0-10 1-20-4-29v-2c5-8 2-17 5-24-2-7-2-13 2-18-3-3-6-5-5-9 2-9 6-16 9-24-1-4-3-8-3-13 5-4 12-7 16-12 3-4 6-6 10-8 0-2 1-4 1-5 4-4 7-8 9-12 3-5 0-11 0-16 13-3 26-6 40-8 0-2-1-4-2-5 14-9 27-18 40-27 6-5 12-10 20-11 15-3 31-7 46-10 0 3 0 6 0 9 8-1 16-2 23-3 6 0 9-6 13-10 5-5 8-13 15-16 2-5 2-12 4-17 6-10 17-13 26-18 3 4 7 9 10 13 6 1 13 1 19 0 4-3 8-7 11-11 5-6 5-16 12-22 3-5 10-9 11-16 0-6 3-12 6-17 10 0 15-10 25-11 4 0 11-3 13 3 0 7-4 14-4 21 0 4 2 9 3 13 6 5 12 12 19 15 9 3 18 8 24 15 0 1 0 4 0 5 1 0 3-2 4-2 11 3 21 8 32 5 7-1 14-2 21-2-1 2-3 5-3 7 4-5 9-11 16-12 5 0 11 0 16 1 0 1 2 4 2 5 6-2 11-4 16-6 0 1 0 7 0 7h0s-8 3-11 5c1 1 3 2 5 3-1 2-2 6-11 9 8 0 22 3 29 3 1 1 2 3 3 4 2-1 4-3 6-4 6 2 12 5 19 5 10 0 19-4 27-7 8 0 13 6 19 11 8-2 14-7 20-12 3-1 7 0 9-3 2-7 0-17 5-23 0 1 0 2 2 4 8-1 3-5 0-5 0 0 0 0 0 0 0-1 1-3 1-4 9-8 19-15 26-25 2 0 4 0 6-1 2-2 4-4 6-6 0-1 0-4 1-6 7 0 14 4 18 10 0 11-1 22-6 32-3 5-8 10-12 14-5 7-7 16-14 21-8 5-13 13-16 22-5 7-3 16-3 23 1 12 10 20 17 28 5 5 4 12 6 17 3 4 8 5 12 8 1 5 2 9 5 13 4 6 14 6 15 15-2 1-3 2-5 2 4 3 8 7 10 11-2 2-4 4-6 5 0 1 0 3-1 4-2 4-5 8-7 12-3 1-7 2-7 5-1 7-5 12-9 17 5-3 10-6 16-9-2-6-5-2-7 0 0-5 3-9 7-12 2 11 4 24 0 35 2 5 5 9 6 14 0 6-2 12-4 18 6 4 13 8 18 13 1 2 4 3 2 6-1 0-3-1-5-2l-1 3c2 0 4 0 6 1 3 2 5 5 8 7 4 4 9 6 13 9 3 5-5 6-7 8 1-2 2-5 3-7-4 3-9 5-13 7 1 1 2 3 3 5-2 1-4 2-5 4 1 5 2 11 1 16 1 0 2 0 3 0 4 5 7 11 12 15m-342-46h9l19-30c2-4 4-8 6-12 0 7 0 19 0 28v14h7v-50h-9l-20 31c-2 4-4 7-5 10 0-5 0-17 0-25v-16h-7v50z m-21 0h7v-50h-7v50z m-62 0h26v-6h-19v-16h18v-5h-18v-17h19v-6h-26v50z m-51 0c4 0 10 0 15 0 16 0 26-7 26-25s-12-26-28-26c-5 0-10 0-13 0v50z m-107 0h8l11-32c1-3 2-7 3-10h0c1 4 1 6 2 10l11 32h8l8-50h-7l-4 29c-1 6-2 9-2 12h0c0-2-1-5-3-9l-10-32h-8l-10 30c-2 4-3 8-4 11h0c0-4 0-8-1-13l-3-28h-7l7 51z m89-152c0-33-19-48-51-48-37 0-47 20-47 44v75h32v-73c0-13 4-19 17-19s17 5 17 20v72h32v-71z m4 102l-5 11h-21l-4-11h-8l19 50h7l19-50h-8z m37-150c-8 0-16 1-24 2l2 30c6-2 16-4 25-4 7 0 12 3 12 8 0 17-43 7-43 47 0 24 18 38 48 38 6 0 15 0 22-2l-2-28c-7 2-14 3-21 3-9 0-13-3-13-8 0-15 44-9 44-45 0-24-19-41-50-41m131 2l-6 19h-36l-6-19h-31l38 116h37l40-116h-35z m140 44l15-46-39 28-39-28 15 46-39 28h48l15 47 15-47h48l-39-28z m-164 35h0c-1-6-3-14-6-22l-4-13h20l-4 15c-3 7-5 13-6 20m-96 94c0 13-6 20-19 20-3 0-6 0-8 0v-39s5 0 7 0c12 0 20 6 20 20" horiz-adv-x="1000" />

<glyph glyph-name="new-icon" unicode="&#xe808;" d="M551 303l8-33-111-27-42 170 108 26 8-32-76-19 9-32 70 17 8-32-70-17 10-41 79 20z m-207 95l26-105-80 91-31-7 42-170 30 8-25 101 79-88 31 8-42 169-30-7z m381-87l-7 179-33-8 7-112-50 101-37-9 3-112-47 101-33-8 77-161 34 8-3 123 55-110 34 9z m99-51c6 24 51 61 51 86 0 25-43 64-49 88s13 79 1 100c-13 22-69 34-87 51-17 18-28 75-49 88-22 13-76-6-101 1-24 6-61 51-86 51-25 0-64-43-88-49s-78 13-100 1c-22-13-33-69-51-87-18-17-75-28-88-49-13-22 6-76-1-101-6-24-51-61-51-86 0-25 43-64 49-88 6-24-13-78-1-100 13-22 69-33 87-51 18-18 28-75 49-88 22-13 76 6 101-1 24-6 61-51 86-51s64 43 88 49c24 6 79-13 100-1 22 13 34 69 51 87 18 18 75 28 88 49 13 22-6 76 1 101m-327-194c-157 2-283 130-281 287 2 156 130 282 287 281 156-2 282-130 281-287-2-157-130-283-287-281" horiz-adv-x="1000" />

<glyph glyph-name="no-pesticides-icon" unicode="&#xe809;" d="M500 725c-207 0-375-168-375-375s168-375 375-375 375 168 375 375-168 375-375 375z m0-735c-198 0-360 162-360 360s162 360 360 360 360-162 360-360-162-360-360-360z m-67 296c0-4 4-7 8-7h30v-22l-6-9c-2-3-1-8 3-10 3-3 8-1 10 2l5 7h30l35-52c7-10 10-21 10-33v-12c0-4 4-7 8-7s7 3 7 7v12c0 15-4 29-12 41l-36 54v22h23c4 0 7 3 7 7v32c0 5-3 8-7 8h-75c-21 0-39-18-39-40z m76-24h-24v17h24v-17z m31 32h-90c3 10 12 17 23 17h67v-17z m25-208c-4 0-7-3-7-7v-7c0-7-6-13-13-13h-95c-7 0-13 6-13 13v91c0 11 4 22 13 35 3 4 1 9-2 11-3 2-8 1-10-2-11-16-16-30-16-44v-91c0-16 13-28 28-28h95c15 0 28 13 28 28v7c0 4-3 7-8 7z m5 236c-4 0-7-3-7-7v-25c0-4 3-7 7-7s8 3 8 7v25c0 4-3 7-8 7z m-178-24c-3 3-8 3-11 0s-3-8 0-10l227-227s3-2 5-2 4 1 5 2c3 3 3 8 0 11l-226 226z m44 212c4 0 7 3 7 8v56h0l34-56c3-5 6-8 10-8 6 0 9 3 9 9v75c0 5-3 8-7 8s-8-3-8-8v-56h0l-33 56c-3 5-6 8-10 8-6 0-10-4-10-9v-75c0-5 3-8 8-8z m109-1c16 0 28 7 32 21 2 7 3 13 3 25s-1 19-3 25c-4 15-16 22-32 22s-27-7-32-22c-2-6-2-12-2-25s0-18 2-25c5-14 17-21 32-21z m-17 68c3 7 8 12 17 12s14-5 17-12c1-4 2-9 2-21s-1-17-2-21c-3-7-8-12-17-12s-14 5-17 12c-1 4-2 9-2 21s1 17 2 21z m-292-101h-28c-4 0-7-3-7-7v-76c0-5 3-9 8-9s8 4 8 9v25s0 1 1 1h18c18 0 30 11 30 29s-12 28-30 28z m-1-42h-17s-1 0-1 1v26s0 1 1 1h17c10 0 15-6 15-14s-5-14-15-14z m54 28h36c5 0 8 3 8 7s-3 7-8 7h-45c-5 0-7-3-7-7v-77c0-4 2-7 7-7h45c5 0 8 3 8 7s-3 7-8 7h-36s-1 0-1 1v23s0 1 1 1h29c5 0 8 3 8 7s-3 7-8 7h-29s-1 0-1 1v22s0 1 1 1z m116-50c0 15-10 24-28 26l-4 1c-13 2-17 6-17 13 0 7 5 12 14 12 7 0 12-2 18-4 1-1 3-2 5-2 4 0 7 3 7 7 0 3-2 5-5 7-5 3-15 6-24 6-19 0-31-11-31-28 0-15 9-23 28-26l4-1c13-1 17-5 17-12 0-8-6-13-18-13-7 0-14 2-21 7-1 0-3 1-5 1-4 0-7-3-7-7 0-3 2-5 5-6 6-5 16-9 28-9 23 0 34 12 34 28z m8 50h18s1 0 1-1v-68c0-5 3-9 8-9s8 4 8 9v68s0 1 0 1h18c5 0 8 3 8 7s-3 7-8 7h-53c-5 0-8-3-8-7s3-7 8-7z m82-69v75c0 5-3 9-7 9s-8-4-8-9v-75c0-5 3-9 8-9s7 4 7 9z m43-10c13 0 23 6 28 15 1 2 1 3 1 5 0 4-3 7-7 7-2 0-5-1-7-4-4-6-8-8-15-8-8 0-13 4-16 12-1 3-2 8-2 20s1 18 2 21c3 8 8 12 16 12 7 0 11-2 15-8 2-3 4-4 7-4 4 0 7 3 7 7 0 2 0 3-1 5-5 9-15 15-28 15-15 0-27-8-31-23-2-6-3-11-3-25s1-18 3-25c4-14 16-22 31-22z m36 85v-75c0-5 4-9 8-9s8 4 8 9v75c0 5-3 9-8 9s-8-4-8-9z m57 8h-23c-4 0-7-3-7-7v-77c0-4 3-7 7-7h23c18 0 29 6 34 20 2 6 3 12 3 25s-1 19-3 25c-4 14-15 20-34 20z m19-65c-2-8-9-12-20-12h-12s0 0 0 1v61s0 1 0 1h12c11 0 18-4 20-12 2-4 2-9 2-19s-1-16-2-19z m44 51h36c5 0 8 3 8 7s-3 7-8 7h-46c-4 0-7-3-7-7v-77c0-4 3-7 7-7h46c5 0 8 3 8 7s-3 7-8 7h-36s-1 0-1 1v23s0 1 1 1h29c5 0 8 3 8 7s-3 7-8 7h-29s-1 0-1 1v22s0 1 1 1z m88-24l-5 1c-12 1-17 6-17 12 0 7 5 12 15 12 6 0 12-1 17-4 2-1 3-1 5-1 4 0 7 3 7 7 0 3-1 5-4 6-5 4-15 7-25 7-18 0-30-11-30-28 0-15 9-24 27-26l5-1c13-2 16-6 16-13 0-7-6-12-17-12-8 0-14 2-21 6-2 1-3 2-5 2-4 0-7-3-7-7 0-3 2-6 4-7 6-4 16-8 28-8 23 0 35 11 35 28s-9 24-27 26z" horiz-adv-x="1000" />

<glyph glyph-name="lab-glass-icon" unicode="&#xe80a;" d="M504-90c-16 0-31 5-44 17-11 12-17 28-17 44s6 32 17 44l273 273c6 5 14 5 20 0 5-5 5-14 0-19l-273-273c-7-7-10-16-10-25s3-18 10-24c13-14 35-14 49 0l273 273c5 5 13 5 19 0 5-6 5-14 0-20l-273-273c-12-12-28-17-44-17z m331 274c-10 0-20 4-28 11l-16 16c-5 5-5 14 0 19 6 5 14 5 19 0l16-15c5-5 13-5 19 0 2 2 3 5 3 9 0 4-1 7-3 9l-74 74c-5 5-13 5-19 0-5-5-5-13 0-19l16-15c5-5 5-14 0-19-6-6-14-6-20 0l-15 15c-15 16-15 41 0 57 16 16 41 16 57 0l73-74c8-7 12-17 12-28 0-11-4-21-12-29-8-7-18-11-28-11z m-70-34h-74c-8 0-13 6-13 13s5 14 13 14h74c8 0 13-6 13-14s-5-13-13-13z m-360-213h-267c-7 0-13 6-13 13v773c0 7 6 13 13 13h514c8 0 13-6 13-13v-462c0-8-5-13-13-13s-13 5-13 13v449h-487v-746h253c8 0 13-6 13-13s-5-14-13-14z m302 409c-8 0-14 6-14 13v405h-500c-8 0-14 6-14 13s6 13 14 13h513c8 0 14-5 14-13v-418c0-7-6-13-14-13z m-491 103c-5 0-9 2-11 6-5 7-2 15 3 19l70 45c5 4 12 3 16-1l29-25 90 63c5 3 12 3 17-1l28-25 108 87c6 5 14 4 19-2 4-6 3-14-2-19l-117-94c-5-4-12-4-17 0l-30 26-90-63c-5-3-12-3-17 1l-28 25-61-40c-3-1-5-2-8-2z m0-94c-8 0-13 6-13 14v44c0 7 5 13 13 13s13-6 13-13v-44c0-8-6-14-13-14z m51 0c-7 0-13 6-13 14v71c0 8 6 13 13 13s13-5 13-13v-71c0-8-5-14-13-14z m51 0c-7 0-13 6-13 14v60c0 8 6 14 13 14s14-6 14-14v-60c0-8-6-14-14-14z m52 0c-8 0-14 6-14 14v81c0 7 6 13 14 13s13-6 13-13v-81c0-8-6-14-13-14z m51 0c-8 0-13 6-13 14v114c0 8 5 14 13 14s13-6 13-14v-114c0-8-6-14-13-14z m51 0c-7 0-13 6-13 14v94c0 7 6 13 13 13s13-6 13-13v-94c0-8-5-14-13-14z m51 0c-7 0-13 6-13 14v125c0 8 6 14 13 14s14-6 14-14v-125c0-8-6-14-14-14z m52 0c-8 0-14 6-14 14v172c0 7 6 13 14 13s13-6 13-13v-172c0-8-6-14-13-14z m1-99h-360c-8 0-13 6-13 13s5 14 13 14h360c8 0 14-6 14-14s-6-13-14-13z m0-64h-360c-8 0-13 6-13 13s5 14 13 14h360c8 0 14-6 14-14s-6-13-14-13z m-71-64h-289c-8 0-13 6-13 13s5 14 13 14h289c8 0 13-6 13-14s-5-13-13-13z m-170-64h-119c-8 0-13 6-13 13s5 13 13 13h119c7 0 13-5 13-13s-6-13-13-13z" horiz-adv-x="1000" />

<glyph glyph-name="flask" unicode="&#xe80b;" d="M782 126q19-68-21-117t-106-50l-521 0q-67 0-107 50t-21 117l129 475q2 10 6 35l-60 0q-21 0-36 15t-15 37 15 37 36 16l625 0q21 0 37-16t16-37-16-37-37-15l-61 0z m-246 510l-291 0q-1-35-10-62l-54-200 3 2 418 0q2 0 3-1t2-1z m119-573q35 0 26 35l-62 231q-9-6-17-6l-416 0q-9 0-17 6l-62-231q-8-35 27-35l521 0z" horiz-adv-x="788" />

<glyph glyph-name="eyedropper" unicode="&#xe80c;" d="M845 415l-16-16 81-81-80-78-80 81-415-418-208 0-109 113 0 201 418 418-83 84 78 78 83-83 16 17q65 65 158 65t157-65q66-65 66-158t-66-158z m-539-381l366 365-158 158-360-361q63-3 106-46 48-48 46-116z" horiz-adv-x="928" />

<glyph glyph-name="beaker-1" unicode="&#xe80d;" d="M2 354q10 49 55 68l424 170q-12 20-12 41 0 33 23 57l43 43q24 23 56 23t56-23l240-240q23-24 23-56t-23-56l-43-45q-24-21-55-21-23 0-43 12l-168-418q-17-47-68-57-8-2-18-2l-4 0q-37 0-62 27l-398 393q-36 35-26 84z m62-11q-3-16 8-28l397-393q10-10 21-10l8 0q16 4 24 20l146 371q-58 61-123 85t-146 33-123 23l-194-78q-15-6-18-23z m186-24q0 25 19 44t44 18 44-18 18-44-18-44-44-19-44 19-19 44z m31 0q0-14 9-23t23-8 22 8 9 23-9 22-22 9-23-9-9-22z m43 144q30-6 80-13 59-6 93-13t87-33 98-70l41 102 55-55q11-11 21 0l45 45q12 10 0 22l-242 242q-10 10-22 0l-45-45q-9-12 0-22l55-54z m51-332q0 14 9 23t22 9 23-9 9-23-9-22-23-9-22 9-9 22z m63 141q0 33 22 56t56 22 55-22 23-56-23-56-55-22-56 22-22 56z m31 0q0-20 14-33t33-14 33 14 14 33-14 33-33 14-33-14-14-33z m375 500q0 33 22 56t56 22 56-22 22-56-22-56-56-22-56 22-22 56z m31-172q0 14 9 22t22 9 23-9 9-22-9-22-23-9-22 9-9 22z m0 172q0-20 14-33t33-14 33 14 14 33-14 33-33 14-33-14-14-33z" horiz-adv-x="1000" />

<glyph glyph-name="basket-alt" unicode="&#xe80e;" d="M359 59c0-46-38-84-84-84s-84 38-84 84 38 84 84 84 84-38 84-84z m405 0c0-46-38-84-84-84-45 0-82 38-82 84s37 84 82 84c46 0 83-38 84-84z m-6 525c27-1 48-23 48-50l0-281c0-29-22-52-51-52l-477 0c-24 0-45 19-49 43l-89 317s-15 58-41 65c-41 12-99-11-99 55 0 43 39 43 39 43 1 0 9 1 19 1 60 0 131-22 158-102z m-42-168l0 82-113 8 0-90 113 0z m-278 0l125 0 0 93-125 9 0-102z m125-28l-125 0 0-97 125 0 0 97z m-165 132l-160 10 37-114 123 0 0 104z m-113-132l30-97 83 0 0 97-113 0z m318-97l113 0 0 97-113 0 0-97z" horiz-adv-x="806" />

<glyph glyph-name="trash" unicode="&#xe80f;" d="M769 739c24 0 45-20 45-45s-21-45-45-45l-6 0-135-688-438 0-134 688-11 0c-25 0-45 20-45 45s20 45 45 45l724 0z m-396-107l-19 17-118 0-18-17 77-78z m-194-258l25-129 60 60-78 77z m39 40l77-77 78 77-78 76z m186-32l-76-77 76-77 77 77z m32 32l77-77 77 77-77 76z m-32 31l77 78-77 76-76-76z m-218 154l-43-42 17-85 26-27 78 78z m109-326l-77-78 77-76 78 76z m109-109l-76-77 57-58 38 0 58 58z m109-45l77 76-77 78-77-78z m100 118l25 128-17 17-76-77z m48 247l13 64-53 51-76-76 76-78z m-71 148l-19 17-117 0-18-17 77-78z m-457-23l40 40-48 0z m96-487l17-93 75 0z m364 12l-107-105 85 0z m91 468l10 47-59 0z" horiz-adv-x="814" />

<glyph glyph-name="basket" unicode="&#xe810;" d="M357-7q0-29-21-50t-50-22-50 22-22 50 22 50 50 21 50-21 21-50z m500 0q0-29-21-50t-50-22-50 22-22 50 22 50 50 21 50-21 21-50z m72 607v-286q0-13-10-23t-22-12l-583-68q7-34 7-40 0-8-13-35h513q15 0 26-11t10-25-10-25-26-11h-571q-14 0-25 11t-11 25q0 6 5 18t9 20 12 22 8 17l-98 459h-114q-15 0-25 10t-11 25 11 26 25 10h143q9 0 16-3t10-9 8-14 4-14 3-17 3-14h670q14 0 25-11t11-25z" horiz-adv-x="928.6" />

<glyph glyph-name="moon" unicode="&#xe811;" d="M524 238q106 106 125 252t-53 270q52-26 96-72 128-128 128-309t-128-309-310-128-310 128q-40 40-72 94 124-70 271-51t253 125z" horiz-adv-x="820" />

<glyph glyph-name="moon-1" unicode="&#xe812;" d="M182 541q-52-82-52-181 0-141 101-243t243-101q98 0 181 53-187 18-321 151t-152 321z m166 256q-56-100-56-205 0-172 122-293t292-121q105 0 205 56-42-145-162-238t-275-93q-188 0-322 134t-134 323q0 154 93 274t237 163z" horiz-adv-x="928" />

<glyph glyph-name="moon-inv" unicode="&#xe813;" d="M706 178q105 0 205 56-42-145-162-238t-275-93q-188 0-322 134t-134 323q0 154 93 274t237 163q-56-100-56-205 0-172 122-293t292-121z" horiz-adv-x="928" />

<glyph glyph-name="cloud-moon" unicode="&#xe814;" d="M2 131q0 90 64 154t155 65q17 0 31-2 78 107 211 125-10 31-10 64 0 30 9 63 16 66 63 113 39 39 94 58 7 3 13 3 11 0 20-9 10-11 10-22 0-5-2-11-12-32-12-65 0-20 4-39 12-52 50-91 38-39 91-51 20-4 39-4 33 0 66 12 5 2 10 2 12 0 22-10 10-9 10-20 0-6-3-13-20-54-59-93-7-8-27-22 66-21 108-78 42-57 42-129 0-90-64-154t-154-65q-42 0-78 14-88-76-203-76t-203 76q-37-14-78-14-90 0-155 65t-64 154z m62 0q0-64 46-110t111-46q48 0 89 29 77-92 192-92t191 92q41-29 90-29 64 0 110 46t46 110-46 110-110 46q-31 0-59-11-2 2-5 6t-3 7q-25 40-58 69-38 28-84 43-35 11-72 11-14 0-14-2-69-2-123-39-54-37-86-95-27 11-58 11-65 0-111-46t-46-110z m455 445q-4-20-4-40 0-33 12-63 134-10 219-117 65 15 103 64-8 0-15 0-101 0-176 73-73 73-73 171 0 10 1 20-8-6-16-14-39-39-51-94z" horiz-adv-x="1000" />

<glyph glyph-name="truck" unicode="&#xe815;" d="M0 319l0 343q0 40 27 67t67 27l469 0q39 0 66-27t27-67l0-62 125 0q51 0 78-41l125-187q16-24 16-53l0-188q0-39-27-66t-67-27l-35 0q-12-42-45-68t-76-26-76 26-45 68l-164 0q-12-42-45-68t-76-26-76 26-45 68l-35 0q-40 0-67 27t-27 66l0 94q-39 0-67 27t-27 67z m63 0q0-14 8-23t23-8l469 0q13 0 22 8t9 23l0 343q0 14-9 23t-22 9l-469 0q-14 0-23-9t-8-23l0-343z m93-188q0-13 9-22t23-9l35 0q11 41 45 67t76 27 76-27 45-67l164 0q12 41 45 67t76 27 76-27 45-67l35 0q14 0 23 9t8 22l0 188q0 10-5 17l-125 188q-8 14-26 14l-125 0 0-219q0-39-27-67t-66-27l-407 0 0-94z m125-62q0-26 19-44t44-19 44 19 18 44-18 44-44 18-44-18-19-44z m407 0q0-26 18-44t44-19 44 19 18 44-18 44-44 18-44-18-18-44z m0 219l0 187q0 14 8 22t23 9l31 0q18 0 25-13l94-141q6-8 6-18l0-46q0-14-9-23t-22-9l-125 0q-14 0-23 9t-8 23z m31 0l125 0 0 46-94 141-31 0 0-187z" horiz-adv-x="1000" />

<glyph glyph-name="droplet" unicode="&#xe816;" d="M290 822q14-118 60-219t92-159 82-136 36-160q0-114-83-196t-197-82-197 82-83 196q0 82 36 160t82 136 92 159 60 219q2 8 11 8t9-8z m-42-392q2 4-2 14-6 6-14 6t-12-6l-40-58q-32-46-48-70t-34-75-18-101q0-24 17-41t41-17q58 0 58 68 0 94 42 246 2 6 5 17t5 17z" horiz-adv-x="560" />

<glyph glyph-name="lock" unicode="&#xe817;" d="M179 421h285v108q0 59-42 101t-101 41-101-41-41-101v-108z m464-53v-322q0-22-16-37t-38-16h-535q-23 0-38 16t-16 37v322q0 22 16 38t38 15h17v108q0 102 74 176t176 74 177-74 73-176v-108h18q23 0 38-15t16-38z" horiz-adv-x="642.9" />

<glyph glyph-name="lock-circled" unicode="&#xe818;" d="M0 350q0 207 147 354t353 146 354-146 146-354-146-354-354-146-353 146-147 354z m252-271l496 0 0 314-82 0 0 59q0 33-14 66-19 45-62 74t-94 30-92-29-62-75q-16-35-14-125l-76 0 0-314z m176 314l0 59q2 31 19 49t45 21l4 0q29-2 49-22t21-48l0-59-138 0z" horiz-adv-x="1000" />

<glyph glyph-name="cruelty-free-icon" unicode="&#xe819;" d="M731 325c0 18-14 40-45 65-16 12-31 24-40 41-8 13-11 28-15 42-6 25-15 45-28 60-12 14-22 21-31 21-3 0-5-1-8-2-14-10-5-40-1-53v-1c4-13 11-25 17-38 0 1-1 1-2 2-15 11-30 23-46 33-1 0-2 1-3 2-7 4-19 11-26 11-3 0-6-1-8-3-2-3-3-8-2-15 2-13 10-23 18-34 1-1 2-3 3-4 4-5 14-15 21-23 1-1 3-2 3-3-6 2-13 3-19 5-19 5-38 9-61 10-6 0-11 0-16 0-27 0-57-2-87-16-19-9-40-30-45-54-4-20 2-44 17-68-1 0-2 0-3 0-1 0-3 1-3 1-5 2-12 4-19 5-1 0-2 0-2 0-12 0-21-9-22-22h0s0-1 0-1c0 0 0 0 0 0h0c0-11 5-23 15-34 14-15 38-26 57-27 23 0 45 0 68-1h24c23-1 45-1 67-2h8c3 0 5 2 6 5 0 3-2 5-5 6-20 7-34 15-39 27-1 3 5 7 9 10 1 0 2 1 2 2 6 4 13 11 15 20 5 26-28 43-49 50-13 4-28 6-42 4-13-2-29-4-34-12 0-1-2-3 0-5 0-1 2-2 4-2 1 0 1 0 2 0 0 0 0-1 0-2 0 0 2-1 2 0 10 4 22 7 35 7 8 0 16-1 24-3 32-8 39-23 41-31 1-10-6-15-14-20-6-5-14-9-15-17 0 0 0 0 0 0 1-11 12-19 21-26 0 0 1-1 1-1-9 0-18 0-26 1-22 0-42 1-65 1-4 0-7 0-11 0-11 0-22 0-32 1-22 1-46 17-55 37-3 5-6 17 1 21 2 0 4 1 6 1 5 0 11-3 16-5 11-4 20-9 30-16 0 0 0 0 1 0 2-2 4-3 6-3 2 0 4 1 5 3 1 2 1 4-1 5 0 1-1 2-1 3-17 25-33 52-30 81 2 24 21 41 56 54 21 7 42 10 65 10s49-3 77-12c17-5 35-11 50-16 0 0 1 0 1 0 2-1 5-2 8-2 2 0 3 0 4 2 1 0 1 2 1 4 0 3-4 5-7 7 0 0-1 1-1 1-31 19-55 44-70 70h0c-5 9-4 11-4 11 0 0 1 0 5-1 8-3 15-9 23-14 1 0 2-1 4-2 11-8 23-16 37-27 6-4 11-9 16-13 0 0 1 0 1 0 3-3 7-5 9-5 2 0 5 0 5 5 0 4-4 9-7 13-1 1-2 3-3 4-2 4-4 8-5 12-1 2-2 3-2 5-5 11-10 23-13 35 0 1-1 3-2 5-3 8-9 27-3 31 1 0 1 1 3 1 6 0 18-13 26-24 7-10 13-22 16-33 3-7 4-14 5-21 4-15 7-31 15-45 10-17 23-28 38-40 3-4 7-7 11-10 1-1 1-2 2-3 4-3 7-6 9-9 2-2 4-4 5-6 2-2 4-4 5-6 5-6 9-15 8-24-5-13-19-21-42-22-17-1-40-5-49-18-4-5-6-12-4-20 0-1 1-1 1-1 0-2 1-3 1-4 0-1 1-1 2-1 0 0 1 0 1 0 3-6 5-8 5-9 1 0 2-1 2 0 7-7 16-13 28-18 1 0 2 0 3 0 3 0 6 2 7 4 0 2 0 4-4 6-4 1-7 3-11 5 0 0 0 1 0 2 0 0-1 2-2 3 0 0 0 0 0 0-9 6-14 12-14 17 1 6 8 10 14 10 5 2 11 2 17 3 4 0 7 0 12 0h0c21 3 24 6 25 9 0 0 0 1 0 1 0 0 1 1 2 1 2 1 3 1 4 2 7 4 7 5 7 7 9 7 13 17 13 26m-231-349c-100 0-194 39-265 110-71 71-110 165-110 265s39 194 110 265c71 71 165 110 265 110s194-39 265-110c71-71 110-165 110-265s-39-194-110-265c-71-71-165-110-265-110m0 727c-94 0-182-37-249-103-66-66-103-155-103-249s37-182 103-248c67-67 155-103 249-103s183 36 249 103c66 66 103 155 103 248s-37 183-103 249c-67 67-155 103-249 103m0-611c-69 0-134 27-183 76-49 48-76 113-76 183s27 134 76 183c49 48 114 75 183 75s134-27 183-75c49-49 76-114 76-183s-27-135-76-183c-49-49-114-76-183-76m0 495c-130 0-236-106-236-236s106-236 236-236 236 106 236 236-106 236-236 236m-182 24c-4 0-8-1-12-4-7-6-8-15-2-22 6-7 15-8 22-2 4 3 6 6 6 10l18-2c-1-8-6-17-13-22-14-12-36-9-47 5-11 15-9 36 6 47 7 6 16 8 24 8l-2-18z m85-5l-17 12-10-5 7-16-16-7-27 61 26 11c12 6 27 0 32-12 3-7 3-14 0-20l23-16-18-9z m-33 21l10 5c5 2 7 8 5 12-2 5-8 7-13 5l-10-4 8-18z m73 18c1-4 5-8 10-7 5 1 8 6 7 10l-7 40 18 3 7-40c2-15-8-28-22-31-15-2-28 7-31 22l-6 40 17 3 7-40z m45-634l-9 18-11 1-1-18-17 2 5 67 28-2c14-1 24-13 23-27-1-7-4-13-9-17l12-26-20 2z m-18 35l10-1c6 0 10 3 11 9 0 5-4 10-9 10l-11 1-1-19z" horiz-adv-x="1000" />

<glyph glyph-name="beaker" unicode="&#xf0c3;" d="M852 42q31-50 12-85t-78-36h-643q-59 0-78 36t12 85l280 443v222h-36q-14 0-25 11t-10 25 10 25 25 11h286q15 0 25-11t11-25-11-25-25-11h-36v-222z m-435 405l-151-240h397l-152 240-11 17v243h-71v-243z" horiz-adv-x="928.6" />

<glyph glyph-name="magic" unicode="&#xf0d0;" d="M664 526l164 163-60 60-164-163z m250 163q0-15-10-25l-718-718q-10-10-25-10t-25 10l-111 111q-10 10-10 25t10 25l718 718q10 10 25 10t25-10l111-111q10-10 10-25z m-754 106l54-16-54-17-17-55-17 55-55 17 55 16 17 55z m195-90l109-34-109-33-34-109-33 109-109 33 109 34 33 109z m519-267l55-17-55-16-17-55-17 55-54 16 54 17 17 55z m-357 357l54-16-54-17-17-55-17 55-54 17 54 16 17 55z" horiz-adv-x="928.6" />

<glyph glyph-name="paypal" unicode="&#xf1ed;" d="M848 490q10-47-3-114-48-248-315-248h-24q-14 0-25-9t-13-24l-3-11-30-193-1-8q-3-15-14-24t-25-9h-140q-12 0-18 8t-5 20q5 32 14 94t15 94 15 93 15 94q3 21 24 21h73q75-2 132 11 98 22 160 81 57 53 87 137 13 39 19 74 1 4 2 4t2 1 3-2q44-33 55-90z m-96 157q0-60-26-132-45-130-168-176-64-22-141-23 0-1-50-1l-51 1q-55 0-65-54-2-4-48-295 0-6-7-6h-164q-12 0-21 9t-6 22l130 821q2 16 15 26t29 11h333q19 0 55-7t62-18q60-23 91-69t32-109z" horiz-adv-x="857.1" />

<glyph glyph-name="cc-visa" unicode="&#xf1f0;" d="M1102 298h-77q8 20 37 99l2 6q2 5 5 14t5 15l7-31z m-806 36l-32 164q-6 31-42 31h-149l-2-8q174-44 225-187z m100 195l-90-245-10 50q-14 39-47 72t-73 50l75-285h98l145 358h-98z m78-359h92l58 359h-92z m428 350q-38 15-83 15-68 0-112-33t-44-86q-1-56 81-97 27-12 37-23t11-21q0-17-17-26t-38-9q-48 0-87 19l-13 6-13-81q42-19 104-19 72 0 116 33t45 90q0 59-78 97-27 14-40 23t-12 21q0 13 14 22t39 9q39 1 69-13l9-5z m238 9h-72q-36 0-48-31l-138-328h97l20 54h118q3-12 11-54h86z m146 178v-714q0-29-21-50t-51-22h-1143q-29 0-50 22t-21 50v714q0 29 21 50t50 22h1143q29 0 51-22t21-50z" horiz-adv-x="1285.7" />

<glyph glyph-name="cc-mastercard" unicode="&#xf1f1;" d="M624 660q-71 47-156 47-58 0-111-22t-90-61-61-90-22-110q0-58 22-111t61-90 90-61 111-22q85 0 156 47-73 60-99 148t0 177 99 148z m19-14q-70-55-96-139t0-168 96-139q71 56 96 139t0 168-96 139z m18 14q73-60 99-148t1-177-100-148q72-47 157-47 58 0 111 22t90 61 61 90 22 111q0 57-22 110t-61 90-91 61-110 22q-85 0-157-47z m414-403h4v2h-10v-2h4v-10h2v10z m16-10h2v12h-3l-3-8-3 8h-3v-12h2v9l3-8h2l3 8v-9z m-4-245v-1h-3v1h3v0z m0-5h1l-2 3h1l1 0q0 1 0 2t0 2l-1 0h-5v-7h2v3h0z m-705 38q0 10 6 17t17 7q10 0 16-7t7-17q0-11-7-18t-16-6q-10 0-17 6t-6 18z m264 24q17 0 20-18h-39q3 18 19 18z m199-24q0 10 6 17t16 7 17-7 6-17q0-11-6-18t-17-6q-10 0-16 6t-6 18z m152 0q0 10 6 17t17 7 16-7 6-17q0-11-6-18t-16-6-17 7-6 17z m88-41q-1 0-2 1-1 0-2 1t-1 2q-1 1-1 2 0 2 1 2 0 2 1 3l1 0q1 0 1 1 1 0 2 0 2 0 2 0l2-1 1-3v0q1-1 1-2l-1 0v-2t0-1l-1-1q-1-1-2-1 0-1-2-1z m-751 3h17v47q0 14-8 22t-22 8q-18 0-26-13-8 13-25 13-14 0-22-11v9h-17v-75h17v42q0 20 18 20 17 0 17-20v-42h16v42q0 20 19 20 16 0 16-20v-42z m93 0h16v75h-16v-9q-10 11-24 11-16 0-27-11t-10-28 10-29 27-11q16 0 24 11v-9z m99 23q0 19-26 22l-8 1q-13 2-13 8 0 8 14 8 13 0 24-6l7 14q-12 7-31 7-14 0-23-6t-8-18q0-19 26-22l8-1q13-2 13-8 0-9-17-9-14 0-25 7l-8-12q14-10 33-10 16 0 25 7t9 18z m73-19l-5 14q-7-4-14-4-11 0-11 12v34h27v15h-27v23h-16v-23h-16v-15h16v-34q0-28 26-28 11 0 20 6z m48 73q-16 0-27-11t-11-28q0-18 11-29t28-11q18 0 31 11l-8 12q-10-8-22-8-19 0-23 18h57v7q0 18-11 28t-25 11z m89 0q-13 0-20-11v9h-17v-75h17v42q0 20 16 20 6 0 10-2l5 15q-5 2-11 2z m16-39q0-18 11-29t29-11q17 0 27 9l-8 13q-10-7-19-6-10 0-17 6t-6 18 6 17 17 7q11 0 19-7l8 13q-11 9-27 9-18 0-29-11t-11-28z m137-38h17v75h-17v-9q-8 11-23 11-17 0-28-11t-10-28 10-29 28-11q15 0 23 11v-9z m74 77q-13 0-19-11v9h-16v-75h16v42q0 20 16 20 5 0 10-2l5 15q-5 2-12 2z m78-77h17v106h-17v-40q-8 11-24 11t-26-11-11-28 11-28 26-12q17 0 24 11v-9z m44 11l-1-1h-2q-1 0-2-1-2-1-2-2 0-2 0-4 0-2 0-3 0-1 2-2 1-1 2-2t3 0q2 0 3 0 0 1 1 1l1 1q1 1 2 2 1 1 1 3 0 2-1 4 0 0-2 2 0 0-1 1l-1 0q0 0-1 1t-2 0z m201 699v-714q0-29-21-50t-51-22h-1143q-29 0-50 22t-21 50v714q0 29 21 50t50 22h1143q29 0 51-22t21-50z" horiz-adv-x="1285.7" />

<glyph glyph-name="cc-discover" unicode="&#xf1f2;" d="M175 416q0-28-20-46-17-15-50-15h-10v123h10q34 0 50-15 20-18 20-47z m991 37q0-29-36-29h-11v56h12q35 0 35-27z m-954-37q0 42-28 68t-72 26h-53v-186h53q42 0 67 21 33 28 33 71z m17-92h36v186h-36v-186z m178 56q0 23-11 35t-42 23q-16 6-22 11t-6 13q0 9 7 14t20 6q16 0 29-15l19 25q-23 20-54 20-25 0-42-15t-16-38q0-19 10-31t35-20q21-7 25-11 11-6 11-18 0-12-8-19t-20-8q-27 0-39 25l-24-22q25-36 64-36 29 0 47 17t17 44z m156-50v43q-21-21-44-21-27 0-45 18t-17 46q0 27 17 46t43 19q24 0 46-22v43q-23 12-45 12-41 0-70-29t-29-69 29-68 69-29q24 0 46 11z m687-337v294q-36-22-81-47t-132-65-184-77-233-75-281-66h875q15 0 25 11t11 25z m-475 422q0 42-29 72t-72 29-71-29-30-72 30-71 71-30 72 30 29 71z m85-96l80 191h-39l-51-125-49 125h-40l79-191h20z m97 5h102v31h-66v50h64v32h-64v41h66v32h-102v-186z m218 0h44l-58 78q42 9 42 52 0 27-17 41t-49 15h-54v-186h36v74h5z m111 380v-708q0-31-22-53t-52-22h-1138q-31 0-52 22t-22 53v708q0 31 22 53t52 22h1138q31 0 52-22t22-53z" horiz-adv-x="1285.7" />

<glyph glyph-name="cc-amex" unicode="&#xf1f3;" d="M66 469h50l-25 61z m347-293l41 44-39 44h-91v-27h80v-31h-80v-30h89z m88 43l55-61v121z m161 27q0 18-22 18h-47v-38h46q23 0 23 20z m161 2q0 16-23 16h-46v-34h45q24 0 24 18z m-155 260q0 16-23 16h-46v-33h45q24 0 24 17z m256-39h50l-25 61z m-534 87v-151h-37v118l-52-118h-32l-52 118v-118h-74l-14 33h-75l-14-33h-39l64 151h54l61-143v143h59l48-103 43 103h60z m310-310q0-11-3-20t-7-14-13-9-15-6-17-2-18-1-18 1-16 0v-51h-71l-44 50-47-50h-142v151h145l44-49 46 49h116q60 0 60-49z m-162 190v-31h-121v151h121v-32h-85v-27h83v-31h-83v-30h85z m748-312v-128q0-31-22-53t-52-22h-1138q-31 0-52 22t-22 53v379h62l14 34h31l14-34h121v25l11-25h63l11 26v-26h302v55l6 0q5 0 5-7v-48h156v12q13-6 31-10t29-3 35 0 29 1l14 34h31l14-34h127v32l18-32h102v211h-100v-25l-14 25h-104v-25l-12 25h-139q-39 0-61-13v13h-96v-13q-14 13-41 13h-350l-24-55-24 55h-111v-25l-12 25h-94l-44-100v218q0 31 22 53t52 22h1138q31 0 52-22t22-53v-379h-67q-29 0-45-12v12h-99q-31 0-44-12v12h-176v-12q-17 12-49 12h-116v-12q-13 12-51 12h-131l-30-32-28 32h-194v-210h191l31 32 29-32h117v49h12q33 0 50 7v-56h98v55h4q4 0 6-1t1-6v-48h295q32 0 49 13v-13h94q33 0 53 9z m-423 131q0-13-7-24t-19-17q14-5 19-14t5-26v-30h-36v25q0 19-7 25t-26 5h-38v-55h-36v151h86q26 0 43-8t16-32z m-155 260q0-13-7-24t-18-17q14-5 19-14t5-26v-29h-37q0 5 1 15t0 13-2 11-5 9-10 4-16 2h-39v-54h-36v151l85-1q28 0 44-8t16-32z m295-340v-31h-120v151h120v-31h-84v-27h83v-31h-83v-30z m-237 381v-151h-37v151h37z m386-364q0-48-57-48h-70v33h70q19 0 19 13 0 9-9 12t-23 3-28 2-23 12-10 31q0 22 15 34t37 11h72v-31h-66q-20 0-20-14 0-9 9-12t24-2 27-1 24-12 9-31z m134 28v-56q-14-20-49-20h-70v33h70q18 0 18 13 0 8-7 11t-17 3-23 1-22 5-17 13-7 27q0 22 15 34t37 11h72v-31h-66q-20 0-20-14 0-12 16-13t38-2 32-15z m-92 335v-150h-52l-68 113v-113h-73l-15 33h-75l-14-33h-41q-72 0-72 74 0 77 74 77h35v-33q-4 0-16 1t-16 0-12-1-12-4-9-7-6-13-2-19q0-21 8-32t28-11h16l51 118h54l61-142v142h55l64-105v105h37z" horiz-adv-x="1285.7" />

<glyph glyph-name="cc-paypal" unicode="&#xf1f4;" d="M416 344q0-20-14-34t-35-14q-17 0-26 9t-10 25q0 21 14 35t35 14q15 0 25-9t11-26z m438 84q0-24-12-32t-37-9l-18 0 9 60q1 6 8 6h10q12 0 19-1t14-7 7-17z m196-84q0-20-15-34t-34-14q-16 0-26 9t-10 25q0 21 14 35t34 14q16 0 26-9t11-26z m-764 96q0 33-21 48t-56 14h-90q-10 0-11-10l-37-228q0-3 2-6t6-3h42q11 0 12 11l10 61q1 5 4 7t9 4 9 1 11-1 8 0q48 0 75 27t27 75z m173-174l23 145q0 4-2 7t-6 2h-42q-8 0-10-18-15 22-53 22-40 0-68-30t-28-71q0-33 19-52t52-20q15 0 32 7t27 18q-2-7-2-12 0-9 7-9h38q11 0 13 11z m249 147q0 2-2 5t-5 2h-43q-6 0-10-5l-59-87-25 83q-3 9-12 9h-42q-3 0-5-2t-2-5q0-2 11-33t23-69 13-39q-45-63-45-67 0-7 7-7h43q6 0 10 5l142 206q1 1 1 4z m212 27q0 33-21 48t-56 14h-89q-11 0-12-10l-37-228q0-3 2-6t6-3h45q7 0 9 7l10 65q1 5 4 7t9 4 9 1 11-1 8 0q48 0 75 27t27 75z m173-174l23 145q0 4-2 7t-6 2h-42q-8 0-10-18-14 22-53 22-40 0-68-30t-28-71q0-33 19-52t52-20q16 0 33 7t26 18q0-1-1-5t-1-7q0-9 7-9h38q11 0 13 11z m121 228v1q0 7-7 7h-41q-6 0-7-6l-37-232 0-1q0-3 2-5t6-3h36q11 0 12 11z m-995-75q-3-19-15-25t-33-7l-19 0 10 60q1 6 7 6h11q22 0 32-7t7-27z m1067 288v-714q0-29-21-50t-51-22h-1143q-29 0-50 22t-21 50v714q0 29 21 50t50 22h1143q29 0 51-22t21-50z" horiz-adv-x="1285.7" />

<glyph glyph-name="cc-stripe" unicode="&#xf1f5;" d="M891 346q0-38-11-59-11-20-30-20-12 0-22 5v125q16 17 31 17 32 0 32-68z m245 20h-62q4 55 32 55 28 0 30-55z m-870-75q0 33-19 51t-56 32q-20 7-29 13t-9 14q0 15 21 15 33 0 69-19l10 63q-37 18-83 18-43 0-68-21-27-22-27-61 0-33 18-51t55-31q22-8 31-14t9-16q0-17-27-17-16 0-39 7t-40 17l-11-63q41-23 94-23 45 0 72 21 29 22 29 65z m164 120l11 62h-54v75l-72-12-10-63-25-5-10-57h35v-122q0-47 24-67 21-17 62-17 18 0 44 6v66q-18-4-24-4-24 0-24 28v110h43z m177-14v77q-9 2-16 2-18 0-31-9t-19-25l-5 31h-73v-263h83v171q15 17 46 17 9 0 15-1z m20-187h84v263h-84v-263z m347 139q0 68-25 100-22 29-62 29-35 0-65-31l-4 26h-74v-360l84 14v84q20-6 38-6 46 0 74 31 34 36 34 113z m-261 194q0 19-13 31t-31 13-31-13-13-31 13-31 31-14 31 14 13 31z m501-199q0 63-26 98-28 36-81 36-53 0-84-37t-31-100q0-72 35-105 31-31 90-31 56 0 89 22l-9 58q-32-18-71-18-24 0-36 11-12 11-15 37h138q1 8 1 29z m72 363v-714q0-29-21-50t-51-22h-1143q-29 0-50 22t-21 50v714q0 29 21 50t50 22h1143q29 0 51-22t21-50z" horiz-adv-x="1285.7" />

<glyph glyph-name="eyedropper-1" unicode="&#xf1fb;" d="M948 798q52-53 52-127t-52-126l-126-124 58-58q6-6 6-13t-6-13l-117-117q-6-6-13-6t-13 6l-58 59-337-337q-21-21-50-21h-113l-143-71-36 36 71 143v113q0 29 21 50l337 337-59 58q-6 6-6 13t6 13l117 117q6 6 13 6t13-6l58-58 124 126q52 52 126 52t127-52z m-662-769l321 321-107 107-321-321v-107h107z" horiz-adv-x="1000" />

<glyph glyph-name="cart-plus" unicode="&#xf217;" d="M679 457q0 15-11 25t-25 11h-72v71q0 15-10 25t-25 11-25-11-11-25v-71h-71q-15 0-25-11t-11-25 11-25 25-11h71v-71q0-14 11-25t25-11 25 11 10 25v71h72q14 0 25 11t11 25z m-322-464q0-30-21-51t-50-21-51 21-21 51 21 50 51 21 50-21 21-50z m500 0q0-30-21-51t-50-21-51 21-21 51 21 50 51 21 50-21 21-50z m72 607v-286q0-13-9-23t-23-12l-583-68q1-4 3-12t3-15 1-13q0-8-13-35h513q15 0 26-11t10-25-10-25-26-11h-571q-14 0-25 11t-11 25q0 8 6 22t17 33 11 22l-98 459h-114q-15 0-25 10t-11 25 11 26 25 10h143q9 0 16-3t11-9 7-14 4-15 3-16 3-14h670q14 0 25-11t11-25z" horiz-adv-x="928.6" />

<glyph glyph-name="cc-diners-club" unicode="&#xf24c;" d="M479 158v386q-59-23-96-75t-37-118 37-118 96-75z m281 193q0 65-37 118t-96 75v-387q59 23 96 76t37 118z m120 0q0-89-44-164t-119-120-164-43q-66 0-127 26t-104 69-70 105-26 127q0 88 44 164t119 119 164 44 164-44 119-119 44-164z m214-4q0 77-31 146t-82 114-120 73-141 27h-167q-99 0-181-45t-131-128-49-187q0-96 49-177t131-130 181-47h167q72 0 141 28t120 75 82 113 31 138z m192 360v-714q0-29-21-50t-51-22h-1143q-29 0-50 22t-21 50v714q0 29 21 50t50 22h1143q29 0 51-22t21-50z" horiz-adv-x="1285.7" />

<glyph glyph-name="amex" unicode="&#xf326;" d="M47 664c-26 0-47-21-47-46v-535c0-26 21-47 47-47h907c25 0 46 21 46 47v535c0 25-21 46-46 46h-907z m-10-132h73l10-19v19h85l19-42 18 42h271c13 0 24-2 32-9v9h74v-9c13 7 29 9 47 9h107l10-19v19h80l11-19v19h77v-164h-78l-15 25v-25h-98l-10 27h-24l-11-27h-51c-20 0-35 5-45 10v-10h-121v38c0 5-1 5-4 5h-4l0-43h-234v21l-8-21h-49l-8 20v-20h-94l-11 27h-24l-11-27h-48v86l34 78z m-34-141h31l11 26h58l10-26h57v92l41-92h24l41 92 0-92h29v118h-47l-33-80-37 80h-46v-112l-47 112h-42l-50-118z m323 118v-118h93v24h-66v24h64v24h-64v21h66v25h-93z m113 0v-118h28v43h30c10 0 16-1 20-5 5-6 5-16 5-23l0-15h28v23c0 11-1 16-5 22-2 3-7 7-13 10 7 3 19 12 19 31 0 13-5 21-14 26-9 5-19 6-34 6h-64z m128 0v-118h29v118h-29z m100 0c-20 0-34-5-43-14-12-13-15-29-15-46 0-21 5-35 15-45 10-10 27-13 41-13h32l11 26h58l11-26h57v88l53-88h39v118h-28v-82l-49 82h-43v-112l-47 112h-42l-40-93h-12c-8 0-15 2-20 6-5 6-7 15-7 28 0 12 3 22 8 26 5 6 11 7 21 7h27v26h-27z m-594-20l19-47h-37l18 47z m664 0l20-47h-39l19 47z m-270-5h34c5 0 10 0 13-2 4-2 6-5 6-10 0-5-2-9-6-11-3-3-8-3-13-3h-34v26z m-266-153h150l22-25 23 25h101c11 0 30-2 39-10v10h90c9 0 27-2 38-10v10h136v-10c7 7 21 10 34 10h76v-10c8 6 19 10 35 10h52v-24h-56c-29 0-40-18-40-35 0-37 33-35 59-36 5 0 8-1 10-3 2-1 3-4 3-7 0-4-1-6-3-8-2-2-6-3-11-3h-54v-25h54c18 0 31 5 38 15v-31c-11-5-26-7-41-7h-73v10c-8-6-23-10-38-10h-228v38c0 4 0 5-5 5h-3v-43h-76v44c-12-5-26-6-39-6h-8v-38l-92 0-22 25-24-25h-147v164z m25-24v-118h110l36 39 35-39h54v40h35c24 0 49 7 49 39 0 33-25 39-48 39h-89l-35-39-35 39h-112z m331 0v-118h28v43h30c10 0 16-1 21-5 5-5 4-16 4-23v-15h28v24c0 10-1 15-5 21-2 4-7 8-13 10 7 3 20 13 20 31 0 14-6 21-15 26-9 5-19 6-33 6h-65z m128 0v-118h94v25l-66 0v23h64v24h-64v22h66v24h-94z m147 0c-29 0-40-18-40-35 0-37 33-35 59-36 5 0 8-1 10-3 2-2 3-4 3-8 0-3-1-6-3-7-2-3-6-3-12-3h-54v-26h55c28 0 44 12 44 38 0 12-3 19-9 24-6 7-17 10-32 10l-15 0c-4 0-8 1-11 2-3 1-6 4-6 8 0 4 1 7 5 9 2 2 6 2 11 2h51v25h-56z m-399-13v-94l-43 48 43 46z m-180-11h71l30-35-32-34h-69v23h62v24h-62v22z m208 0h36c10 0 17-4 17-15 0-10-6-16-17-16h-36v31z m125 0h34c5 0 10 0 14-2 3-2 5-6 5-11 0-5-2-9-5-11-4-2-9-2-14-2h-34v26z m360-1h51v-34c-1 1-2 2-3 3-6 7-16 9-32 10l-15 0c-4 0-8 0-10 1-4 2-7 5-7 9 0 4 2 7 5 9 2 2 6 2 11 2z" horiz-adv-x="1000" />

<glyph glyph-name="visa" unicode="&#xf328;" d="M40 664c-22 0-40-18-40-40v-548c0-22 18-40 40-40h920c22 0 40 18 40 40v548c0 22-18 40-40 40h-920z m557-187c25 0 44-5 57-10l-9-54-6 3c-11 5-26 10-47 9-24 0-35-11-35-21-1-11 13-19 35-30 36-18 53-39 52-67 0-52-43-85-109-85-28 1-55 6-70 13l9 56 8-4c21-10 34-13 59-13 18 0 38 7 38 24 0 11-8 18-33 30-24 12-55 32-55 67 1 48 44 82 106 82z m-509-8h102c13 0 24-5 28-20l22-112c0 0 0 0 0 0l7-34 61 166h67l-99-243-67 0-53 196c32-17 59-36 74-63-4 9-9 18-16 28-8 11-25 25-32 31-24 20-58 37-94 46l0 5z m313 0h65l-40-243h-65l40 243z m368 0h49l52-243h-59s-6 28-8 36c-9 0-74 0-82 0-2-6-13-36-13-36h-67l95 223c6 15 18 20 33 20z m5-66c-3-9-9-23-9-23 0 0-20-53-25-67l53 0c-3 12-15 70-15 70l-4 20z" horiz-adv-x="1000" />

<glyph glyph-name="mastercard" unicode="&#xf329;" d="M47 655c-26 0-47-21-47-46v-535c0-26 21-47 47-47h907c25 0 46 21 46 47v535c0 25-21 46-46 46h-907z m281-76c57 0 109-19 151-53-35-31-61-71-74-117h20c12 38 34 72 62 98 28-26 49-60 61-98h20c-13 46-39 86-73 117 41 33 94 53 151 53 132 0 240-107 240-239 0-132-108-240-240-240-58 0-112 21-153 56 37 32 64 75 77 125h-20c-11-42-33-78-63-107-30 29-53 65-64 107h-19c13-49 40-92 77-124-42-34-95-54-153-54-132 0-240 106-240 238s108 238 240 238z m300-168c-29 0-57-25-57-72 0-32 15-52 45-52 9 0 22 3 22 3l4 27s-12-6-20-6c-18 0-25 14-25 28 0 30 15 46 32 46 13 0 23-7 23-7l4 27s-15 6-28 6z m242-2l-25 0-5-33s-10 13-24 13c-23 0-42-28-42-59 0-20 10-40 31-40 14 0 23 10 23 10l-1-8h24l19 117z m-717-1l-20-117h24l15 89 3-89h17l32 89-14-89h25l20 117h-40l-24-72-1 72h-37z m251-7c0-1-14-81-14-91 0-15 8-21 19-21 8 0 15 2 18 3 0 0 1 0 1 0l3 21c-2 0-4-1-7-1-8 0-9 5-9 8l7 43h13l4 23h-13l3 15h-25z m291-12c-17 0-30-6-30-6l-4-21s11 4 27 4c9 0 16-1 16-8 0-5-1-7-1-7s-7 1-10 1c-22 0-44-9-44-37 0-22 15-27 24-27 17 0 24 11 25 11l-1-9h22l9 69c0 29-25 30-33 30z m-404 0c-17 0-30-6-30-6l-4-21s11 4 27 4c9 0 16-1 16-8 0-5-1-7-1-7s-7 1-10 1c-22 0-44-9-44-37 0-22 15-27 24-27 17 0 25 11 25 11l-1-9h22l9 69c0 29-25 30-33 30z m76 0c-18 0-36-7-36-32 0-29 30-26 30-38 0-8-8-8-15-8-11 0-22 4-22 3l-3-21c1 0 7-3 28-3 5 0 37-2 37 31 0 31-30 25-30 37 0 6 5 8 14 8 3 0 17-1 17-1l3 22c0 0-9 2-23 2z m113 0c-25 0-44-27-44-58 0-35 24-43 44-43 18 0 26 4 26 4l4 24s-14-6-26-6c-27 0-22 20-22 20h50s4 16 4 22c0 17-8 37-36 37z m91-1c-11 0-20-15-20-15l3 14h-24l-16-97h26c8 41 9 75 27 69 3 16 6 22 9 28 0 0-2 1-5 1z m210 0c-11 0-19-15-19-15l2 14h-23l-16-97h26c7 41 8 75 26 69 3 16 6 22 9 28 0 0-1 1-5 1z m-301-21c14 0 12-16 12-17h-28c0 1 2 17 16 17z m339-2c10 0 14-6 14-20 0-13-6-31-20-31-9 0-13 8-13 19 0 20 8 32 19 32z m-124-33c3 0 4 0 5 0 0 0 0 0 0 0 0-4-3-25-17-25-8 0-10 6-10 10 0 7 4 15 22 15z m-404 0c4 0 4 0 5 0 1-5-2-25-17-25-8 0-10 6-10 10 0 7 4 15 22 15z" horiz-adv-x="1000" />

<glyph glyph-name="search" unicode="&#xf50d;" d="M11 375q-23 87 0 173t87 150q48 49 110 74t128 25q65 0 127-25t110-74q52-52 77-119t21-137-36-132q28-8 49-29l174-173q35-35 35-85t-35-85q-35-35-85-35t-85 35l-173 174q-22 20-30 49-70-35-149-35-66 0-128 25t-110 73q-64 64-87 151z m101 86q0-93 65-158 66-65 159-65 92 0 157 65t66 158-66 158q-66 66-157 66-92 0-159-66-65-65-65-158z" horiz-adv-x="892.6" />
</font>
</defs>
</svg>
